View Single Post
  #1  
Old 20.12.2017, 05:36
junkboxforbb junkboxforbb is offline
Junior Loader
 
Join Date: Dec 2017
Posts: 10
Default hls stream segments have errors

OS: Ubuntu 16.04.3 LTS (GNU/Linux 4.4.0-104-generic x86_64)
JDownloader: Built Sun Dec 17 11:58:50 CET 2017
Java: openjdk version "1.8.0_151"

I found an issue where video downloaded has sporadical frame issues

Here is sample link: **External links are only visible to Support Staff****External links are only visible to Support Staff**

You can find frame problems at 00:11:15, 00:11:25

Here is file size
Code:
$ ls -al SNIS-035.mp4 
-rwxrwx--- 1 root plugdev 952154873 Dec 19 22:15 SNIS-035.mp4
Here is media info
Code:
Metadata:
    major_brand     : isom
    minor_version   : 512
    compatible_brands: isomiso2avc1mp41
    encoder         : Lavf56.40.101
  Duration: 02:25:41.13, start: 0.000000, bitrate: 871 kb/s
    Stream #0:0(und): Video: h264 (High) (avc1 / 0x31637661), yuv420p, 1280x720 [SAR 1:1 DAR 16:9], 738 kb/s, 29.30 fps, 29.97 tbr, 90k tbn, 59.94 tbc (default)
    Metadata:
      handler_name    : VideoHandler
    Stream #0:1(und): Audio: aac (LC) (mp4a / 0x6134706D), 44100 Hz, stereo, fltp, 124 kb/s (default)

Last edited by Jiaz; 20.12.2017 at 10:31.
Reply With Quote