Thread: [See Bugtracker] TVNow.de - Plugin veraltet tvnow.de
View Single Post
  #19  
Old 13.12.2018, 03:17
peter2018 peter2018 is offline
Vacuum Cleaner
 
Join Date: Oct 2018
Posts: 17
Default

Quote:
Originally Posted by pspzockerscene View Post

Ich kann das nicht bestätigen.
Imgrunde haben wir sowieso keinen Einfluss auf die Qualität - JD lädt das was vom Server kommt.
Du kannst es im Browser gegen-prüfen und ggf. Beispiellinks hier posten.

Bedenke, dass dort auch sehr viele alte Inhalte sind und keiner von uns weiß, wie oft die umgewandelt werden bevor sie in einer Mediathek landen

Grüße, psp
Ich habe das mit einer aktuellen Köln 50667 getestet. Da hatte ich gestern die gleiche Folge mit Youtube-dl runtergeladen (geht derzeit überhaupt nicht mehr, mit den neuen Links) und bei dieser Datei ruckelt nichts. Dann habe ich die letzte Folge von den Reimanns geladen. Auch wieder ruckeln mit JDownloader. Auch bei der neuen Serie mit Detlef und Panagiota.

Habe natürlich auch den VLC Player geprüft, der spielt allerdings alles andere flüssig ab.

Hier mal die Mediadaten von Köln:

Mit Youtube-dl:
General
ID : 16727 (0x4157)
Complete name : F:\HD Serien\Reality Serien\Köln 50667\Neue Folgen\Köln 50667 (Folge 1510).mp4
Format : MPEG-TS
File size : 961 MiB
Duration : 44 min 51 s
Overall bit rate mode : Variable
Overall bit rate : 2 996 kb/s
FileExtension_Invalid : ts m2t m2s m4t m4s tmf ts tp trp ty

Video
ID : 33 (0x21)
Menu ID : 16727 (0x4157)
Format : AVC
Format/Info : Advanced Video Codec
Format profile : Main@L3.1
Format settings : CABAC / 4 Ref Frames
Format settings, CABAC : Yes
Format settings, ReFrames : 4 frames
Codec ID : 27
Duration : 44 min 51 s
Bit rate mode : Constant
Nominal bit rate : 2 800 kb/s / 2 800 kb/s
Width : 960 pixels
Height : 540 pixels
Display aspect ratio : 16:9
Frame rate : 25.000 FPS
Color space : YUV
Chroma subsampling : 4:2:0
Bit depth : 8 bits
Scan type : Progressive
Bits/(Pixel*Frame) : 0.216
Writing library : x264 core 152
Encoding settings : cabac=1 / ref=3 / deblock=1:0:0 / analyse=0x1:0x111 / me=hex / subme=5 / psy=1 / psy_rd=1.00:0.00 / mixed_ref=1 / me_range=16 / chroma_me=1 / trellis=1 / 8x8dct=0 / cqm=0 / deadzone=21,11 / fast_pskip=1 / chroma_qp_offset=0 / threads=12 / lookahead_threads=3 / sliced_threads=0 / slices=1 / nr=0 / decimate=1 / interlaced=0 / bluray_compat=0 / stitchable=1 / constrained_intra=0 / bframes=3 / b_pyramid=2 / b_adapt=1 / b_bias=0 / direct=1 / weightb=0 / open_gop=0 / weightp=1 / keyint=50 / keyint_min=5 / scenecut=0 / intra_refresh=0 / rc_lookahead=40 / rc=cbr / mbtree=1 / bitrate=2800 / ratetol=1.0 / qcomp=0.60 / qpmin=0 / qpmax=69 / qpstep=4 / vbv_maxrate=2800 / vbv_bufsize=5600 / nal_hrd=cbr / filler=1 / ip_ratio=1.40 / aq=3:1.00
Color range : Limited
Matrix coefficients : BT.470 System B/G

Audio
ID : 34 (0x22)
Menu ID : 16727 (0x4157)
Format : AAC LC
Format/Info : Advanced Audio Codec Low Complexity
Format version : Version 4
Muxing mode : ADTS
Codec ID : 15-2
Duration : 44 min 51 s
Bit rate mode : Variable
Maximum bit rate : 128 kb/s
Channel(s) : 2 channels
Channel layout : L R
Sampling rate : 48.0 kHz
Frame rate : 46.875 FPS (1024 SPF)
Compression mode : Lossy
Language : German

Und hier von JDownloader mit der gleichen Folge:

General
Complete name : F:\2018-12-12_rtl2_Köln 50667 - S07E1510_Köln 50667 (Folge 1510).mp4
Format : MPEG-4
Format profile : Base Media
Codec ID : isom (isom/iso2/avc1/mp41)
File size : 929 MiB
Duration : 44 min 51 s
Overall bit rate mode : Constant
Overall bit rate : 2 896 kb/s
Writing application : Lavf58.18.104

Video
ID : 1
Format : AVC
Format/Info : Advanced Video Codec
Format profile : Main@L3.1
Format settings : CABAC / 4 Ref Frames
Format settings, CABAC : Yes
Format settings, ReFrames : 4 frames
Codec ID : avc1
Codec ID/Info : Advanced Video Coding
Duration : 44 min 51 s
Bit rate mode : Constant
Bit rate : 2 800 kb/s / 2 800 kb/s
Width : 960 pixels
Height : 540 pixels
Display aspect ratio : 16:9
Frame rate mode : Variable
Frame rate : 25.000 FPS
Minimum frame rate : 12.500 FPS
Maximum frame rate : 90 000.000 FPS
Color space : YUV
Chroma subsampling : 4:2:0
Bit depth : 8 bits
Scan type : Progressive
Bits/(Pixel*Frame) : 0.216
Stream size : 887 MiB (95%)
Writing library : x264 core 152
Encoding settings : cabac=1 / ref=3 / deblock=1:0:0 / analyse=0x1:0x111 / me=hex / subme=5 / psy=1 / psy_rd=1.00:0.00 / mixed_ref=1 / me_range=16 / chroma_me=1 / trellis=1 / 8x8dct=0 / cqm=0 / deadzone=21,11 / fast_pskip=1 / chroma_qp_offset=0 / threads=12 / lookahead_threads=3 / sliced_threads=0 / slices=1 / nr=0 / decimate=1 / interlaced=0 / bluray_compat=0 / stitchable=1 / constrained_intra=0 / bframes=3 / b_pyramid=2 / b_adapt=1 / b_bias=0 / direct=1 / weightb=0 / open_gop=0 / weightp=1 / keyint=50 / keyint_min=5 / scenecut=0 / intra_refresh=0 / rc_lookahead=40 / rc=cbr / mbtree=1 / bitrate=2800 / ratetol=1.0 / qcomp=0.60 / qpmin=0 / qpmax=69 / qpstep=4 / vbv_maxrate=2800 / vbv_bufsize=5600 / nal_hrd=cbr / filler=1 / ip_ratio=1.40 / aq=3:1.00
Color range : Limited
Matrix coefficients : BT.470 System B/G
Codec configuration box : avcC

Audio
ID : 2
Format : AAC LC
Format/Info : Advanced Audio Codec Low Complexity
Codec ID : mp4a-40-2
Duration : 44 min 51 s
Bit rate mode : Constant
Bit rate : 125 kb/s
Channel(s) : 2 channels
Channel layout : L R
Sampling rate : 48.0 kHz
Frame rate : 46.875 FPS (1024 SPF)
Compression mode : Lossy
Stream size : 40.0 MiB (4%)
Default : Yes
Alternate group : 1

Ich möchte euch sicher nicht nerven. Ich möchte nur mit technischer Info euch helfen wieder alles hinzubekommen.
Reply With Quote